Tbnアプリダウンロードリンク

2018/03/01

キャロッセは、cusco racingの2020シーズン・モータースポーツ活動計画を発表した。aprcへの参戦を継続しタイトル奪還を狙うほか、注目のwrcラリージャパンには、シュコ…

2018年8月21日 iPhoneまたはAndroidスマホのアプリをWEBサイトやブログで紹介する際、記事中にアプリへのダウンロードリンクを設置したいときがありますが、それぞれ公式で簡単にダウンロードバナーを作成すること

【無料ダウンロード】 Iphone 壁紙 枠 Iphone Xのノッチをかっこよく見せる壁紙 不思議なiphone壁紙のブログ Frame Black Iphone 7 Plus Wallpaper Iphone Homescreen 米Microsoftは6月17日(現地時間)、タスク管理アプリ「Microsoft To-Do」のMac版をリリースした。macOS 10.13以降に対応するフリーソフトで、現在“Mac App スマホの壁紙もsnsもキラキラ個性的に Xefx フォトアニメーター 壁紙といえば当たり前だが静止画だ その壁紙にgifを指定することで動く壁紙とすることができるのが今回紹介するbionix animated wallpaperだ 1ダウンロード まずはダウンロード こちらのリンクからbionix animated wallpaperを取得する 2実行. Iphoneのsafariでリンク先のファイルをダウンロードする方法 Iphone Wave Https Encrypted Tbn0 Gstatic Com Images Q Tbn 【無料ダウンロード】 Iphone 壁紙 アリエル 画像 ディズニー リトルマーメイド アリエル スマホ壁紙 待ち受け画面画像 Disney Ariel Naver まとめ Ariel Fine Art By John Alvin ディズニーリトルマーメイドイラスト参考 人魚 イラスト ディズニー 絵 【無料ダウンロード】 壁紙 Ff ディシディア012 Duodecimファイナルファンタジーhdの壁紙 11 壁紙 大人気ゲームファイナルファンタジーfinal fantasyをモチーフにした1920x1080ピクセルの macや pcのデスクトップ用壁紙wallpaperを収集しました気に入った壁紙はリンク先

マインクラフト レッドストーン 建築 インテリア完全攻略 感想 無料 マインクラフト 割れ ダウンロード 18 のダウンロード ソフトウェア updatestar minecraft は破壊しブロックを配置することについてのゲームです最初人々 夜行性モンスターに対して保護するために構造を構築がゲームとして育った 【無料ダウンロード】 Iphone 壁紙 枠 Iphone Xのノッチをかっこよく見せる壁紙 不思議なiphone壁紙のブログ Frame Black Iphone 7 Plus Wallpaper Iphone Homescreen 米Microsoftは6月17日(現地時間)、タスク管理アプリ「Microsoft To-Do」のMac版をリリースした。macOS 10.13以降に対応するフリーソフトで、現在“Mac App スマホの壁紙もsnsもキラキラ個性的に Xefx フォトアニメーター 壁紙といえば当たり前だが静止画だ その壁紙にgifを指定することで動く壁紙とすることができるのが今回紹介するbionix animated wallpaperだ 1ダウンロード まずはダウンロード こちらのリンクからbionix animated wallpaperを取得する 2実行. Iphoneのsafariでリンク先のファイルをダウンロードする方法 Iphone Wave Https Encrypted Tbn0 Gstatic Com Images Q Tbn 【無料ダウンロード】 Iphone 壁紙 アリエル 画像 ディズニー リトルマーメイド アリエル スマホ壁紙 待ち受け画面画像 Disney Ariel Naver まとめ Ariel Fine Art By John Alvin ディズニーリトルマーメイドイラスト参考 人魚 イラスト ディズニー 絵 【無料ダウンロード】 壁紙 Ff ディシディア012 Duodecimファイナルファンタジーhdの壁紙 11 壁紙 大人気ゲームファイナルファンタジーfinal fantasyをモチーフにした1920x1080ピクセルの macや pcのデスクトップ用壁紙wallpaperを収集しました気に入った壁紙はリンク先

2015年3月24日 審 査 員:永野芽郁 (新潮社「nicola」レギュラー出演中)、鈴木美羽 (新潮社「nicola」レギュラー出演中)、加藤有香 (株式会社TSUTAYA 商品本部BOOK部TBNユニット BOOKMDチーム)、中嶋奈津子(KDDI株式会社新規ビジネス推進本部  2014年8月29日 アプリリンク iOS アプリが完成してリリース申請して Ready for Sale になったら、次に待っているのはアプリの告知です。アプリを Web サイトで公開したりシェアしたりするときに使うのがアプリのリンク UR … 下絵ダウンロード|パーラービーズ. パーラービーズとは、 ハンドメイドマーケット、手作り作品の通販・販売サイトとアプリ minne。 KG-ChartLEforCrossStitchを使用して作りました)※この図案を使用してくださり、ご自身のブログ等に掲載される方は、こちらのページにリンクを貼ってくださると嬉しいです。 encrypted-tbn0.gstatic.com images?q=tbn:ANd9GcTyfbkkN-yjqzmqM2vR1k_EQFcVo9NUFBj6W2QNmd8DTNlK63uj. ダウンロードしたインストーラをクリックして起動し、 後はメッセージに従って、Virtualbox の機能拡張パッケージをインストールする。 3. 手動で "LenovoEMC Storage Connector" をインストールする(バージョン 1.1.2.26394(英語ページ))。(リンク切れ) bitrate: 458 kb/s Stream #0.0(und): Video: h264, yuv420p, 540x360, 374 kb/s, 30 fps, 30 tbr, 60 tbn, 60 tbc Stream #0.1(und): Audio: aac, 44100 Hz, stereo, s16, 81 kb/s Output クリックしてから特定のアプリが起動するまでに,3.2 の時より時間がかかる. また、非水滴定や2つ当量点のある複雑なアプリケーション(水硬度、TAN/TBN)に適しています。 関連コミュニケーションにおいて解除リンクをクリックし、または、下記にある連絡先までご連絡になると、この登録はいつでも に埋め込まれた小さな画像のことで、Xylemが着信トラフィックを監視したり、ビーコンの表示されたページでダウンロードしたことの 欧州ネットワーク広告イニシアティブ、DAAやその他のモバイルアプリを持っている場合、お客様のデバイス設定をご覧ください。 第三者のウェブサイトへのリンク ffmpeg BuildsからStatic版をダウンロード解凍して、Program Filesなどに移動させて、windowsの環境設定からPathを設定。 yuvj420p(pc, bt709), 1920x1080 [SAR 1:1 DAR 16:9], 33010 kb/s, 29.97 fps, 29.97 tbr, 90k tbn, 59.94 tbc (default) からwindow10にアップグレードして使う際、Skypeなどのテレビ会議アプリでビルトインのカメラを作動させるとブルースクリーンに Ubuntu 18.04の場合、HDF5のシンボリックリンクの名前が異なり、場所がわからないというエラーが出るので、CMakelist.txt中に、.

に質問してコミュニティで回答を見つけよう! 回答を見つける · Spotify. 会社情報: 企業情報 · 採用情報 · For the Record. コミュニティ: アーティスト向け · 開発者 · ブランド · 投資家の皆さまへ · ベンダー. その他: ヘルプ · ウェブプレイヤー · 無料モバイルアプリ.

2014/11/13 iTunesを12.7にアップデートした後、「App」機能が削除されたので、パソコンでiPhoneのアプリをダウンロード&インストールすることはできなくなりました。でも、他の方法がありますか?そこでここで、パソコンでiPhoneアプリをダウンロード&インストールする方法をご紹介します。 ソフトウェアダウンロード オムロン商品の管理ソフトウェアなどをダウンロード、またはご購入いただけます。 ウェルネスリンク機器専用 測定記録取り込みソフトウェア 、ウェルネスリンク HSL-101専用 睡眠手帳ソフトウェア はページ下部のリンクよりダウンロードページへアクセスください。 保護者による使用制限を設定することで、お子様が Google Play からダウンロードまたは購入できるコンテンツを制限できます。 ファミリー リンク アプリ を開きます。 お子様を選択します。 [設定] カードで、[管理] [Google Play での使用制限] をタップします。 2020/06/09 2020/06/04


機会があったので今回はインストール方法を使用方法をまとめていきます。 ちなみにエフエフエムペグと読むみたいですね。 スポンサーリンク 60 fps, 60 tbr, 6k tbn, 12k tbc (default) Metadata: creation_time : 2019-03-30T10:34:17.000000Z handler_name : Core Media Data Homebrew-CaskでmacOS用アプリをコマンド1行でイン.

Leave a Reply